Listen free to Angèle – Brol, la suite (La Thune, Balance ton quoi and more). Flou - Angèle MP3, Paroles et clip à écouter et télécharger légalement Contributions: 61 translations, 974 thanks received, 8 translation requests fulfilled for 4 members, explained 1 idiom, left 3 comments Angèle – Flou (Live) | Vevo DSCVR ARTISTS TO WATCH 2019 Download mp3. Angèle - Les Matins 09. DR6 -0.22 dB -8.92 dB 3:46 03-Jalousie This track ends without fading out Duration: 3:18 - Sample at: 1:32. Report. Angèle. Jain - Gloria 10. Key. Genres. VBR MP3 . Angèle - Victime des réseaux 08. Instrumental Version MP3. --------------------------------------------------------------------------------, DR Peak RMS Duration Track Jenifer - Comme c'est bon 13. Official DR value: DR6, Samplerate: 44100 Hz Macklemore & Patrick Stump of Fall Out Boy).mp3" Instrumental Version MP3. 12. Same as the original tempo: 92 BPM. Tu me regardes. The acapella for Flou is in the key of F Minor, has a tempo of 113 bpm, and is 3 minutes and 16 seconds long. RELEASED OCTOBER 5, 2018 ℗ 2018 ANGÈLE VL RECORDS. Access type. TORRENT download. Flou - Angèle - MP3 instrumental karaoke. Released. DR8 -0.24 dB -11.89 dB 3:13 06-Nombreux She was born in Uccle, Brussels-Capital Region. Angèle - Balance ton quoi 03. Using BitTorrent is legal, downloading copyrighted material isn’t. Tempo 113 bpm. Insomnies. Angèle. -------------------------------------------------------------------------------- 20 - Lara Fabian - Par Amour.mp3 download. Same as the original tempo: 113 BPM. All files available for download are reproduced tracks, they're not the original music. ... or by exporting MP3 files to your computer and playing on any MP3 compatible music player. Analyzed: Angele / Brol Flou - Angèle - MP3 backing track. Angèle - Je veux tes yeux 10. Télécharger Nrj Holiday 2019 en torrent . Label ℗ 2019 Angèle VL Records. Download it, sing it. Angèle. This title is a cover version of Flou as made famous by Angèle. 2.9m Followers, 583 Following, 453 Posts - See Instagram photos and videos from Angèle (@angele_vl) How would you rate this track? Give it a 2 stars? TORRENT download. File type. Ellie Goulding - Close To Me 14. Shop Vinyl and CDs and complete your Angèle collection. Total length. DR6 -0.22 dB -7.57 dB 4:16 11-Flemme 3.0M . Best free search mp3 and mp4 music songs downloads site Angèle - Flou [CLIP OFFICIEL] | Floux Brol Songs - Download Brol mp3 songs to your Hungama account. Хип-хоп для спортивных танцев. 3.6M . Free mp3 music songs download online. Angèle – Flou (Live) | Vevo DSCVR ARTISTS TO WATCH 2019 Download mp3. 0. French Pop Music, Electro, In French Download Flou song on Gaana.com and listen Brol Flou song offline. Bitrate: 1553 kbps Discover releases, reviews, credits, songs, and more about Angèle - Brol at Discogs. Stream ad-free or purchase CD's and MP3s now on Amazon.co.uk. MARINA & Luis Fonsi) 11. Stream ad-free or purchase CD's and MP3s now on Amazon.com. Same as the original tempo: 92 BPM. -------------------------------------------------------------------------------- Flou Your No.1 source for MP3 instrumental tracks, This title is a cover of Jalousie as made famous by Angèle, Duration: 3:48 - Preview at: Brol is the first studio album released by Angèle, a young Belgian artist from Brussels. Key F Minor. With backing vocals. Camelot 4A. DR6 -0.22 dB -7.51 dB 3:22 04-Tout oublier Macklemore & Patrick Stump of Fall Out Boy) 12. Sam Smith - Dancing With A Stranger 09. RELEASED OCTOBER 5, 2018 ℗ 2018 ANGÈLE VL RECORDS. 07 Angèle Ta Reine ( Version Orchestrale) ... Angèle - Flou.ogg download. Flou - Angèle - Custom Backing Track MP3. Flou. With backing vocals. Русский рэп: открытия. La loi de Murphy. 07 Angèle Ta Reine ( Version Orchestrale) ... Angèle - Flou.ogg download. DR6 -0.22 dB -8.84 dB 3:23 07-Victime des réseaux 3.3M . 05. Werbefrei streamen oder als CD und MP3 kaufen bei Amazon.de. History titles awarded on the radio Activ Radio-mp3-192K. Original songwriter: Angèle, Tristan Salvati. 3:16 PREVIEW 12 SONGS, 41 MINUTES. Music Videos. With […] Angèle. Tempo: variable (around 69 BPM) ... Flou. Latest titles and artists played on activ-radio-mp3. Listen online 19 songs from La Loi De Murphy (CDS) 2017 - Angele. Vocal Backing Track MP3 $1.99. 19 - Angèle - Flou.mp3 download. These music files do not include lyrics. Music Videos. Angèle - Ta reine 11. Télécharger Nrj Holiday 2019 en torrent . VBR M3U download. "15. Flou MP3 Song by Ang from the French movie Brol. ... Flou. This title is a cover of Flou as made famous by Angèle. Flou - Angèle - MP3 instrumental karaoke. 01. DR5 -0.22 dB -8.42 dB 3:17 12-Flou Jonas Brothers - Sucker 07. Flou Angèle More by Angèle. Vocal Backing Track MP3 $1.99. We would like to show you a description here but the site won’t allow us. 21 - Mylène Farmer - Des ... 9 - Boulevard des Airs - Allez reste.mp3 download. Your No.1 source for MP3 instrumental tracks. In the same key as the original: Fm This song ends without fade out Duration: 03:18 - Preview at: 01:32. DR6 -0.22 dB -8.62 dB 2:55 08-Les matins Angèle. Community Audio. La loi de Murphy. Perdus download. download 1 file . Filename G:\EAC RIPS\Angele\Angele - Brol (2018) [FLAC] {6797720}\12 - Angele - Flou.wav Pre-gap length 0:00:01.36 Peak level 99.7 % Extraction speed 7.5 X Track quality 100.0 % Test CRC 33C02A85 Copy CRC 33C02A85 Track not present in AccurateRip database Copy OK None of the tracks are present in the AccurateRip database No errors occurred View credits, reviews, tracks and shop for the 2018 180 Grs, White Vinyl release of Brol on Discogs. Here you can buy and download music mp3 Angele. Angèle - Flou 06. Flou made famous by Angèle • 2 music tracks in MP3 instrumental version • 1 music track with vocals (cover) Same as the original tempo: 113 BPM. Release date: 2018 0. Angèle - Flou Instrumental Version MP3. DR5 -0.22 dB -7.81 dB 3:09 02-Balance ton quoi 1:32. In the same key as the original: Fm This song ends without fade out Duration: 03:18 - Preview at: 01:32. Your No.1 source for MP3 instrumental tracks, This title is a cover of Flou as made famous by Angèle, Duration: 03:18 - Preview at: Entdecken Sie Brol [Explicit] von Angèle bei Amazon Music. Format: MP3 320 Kbps
12. - Martin Garrix - Summer Days (feat. download 1 file . Flou made famous by Angèle • 2 music tracks in MP3 instrumental version • 1 music track with vocals (cover) Angèle. download 1 file . Macklemore & Patrick Stump of Fall Out Boy).mp3" Check out Brol [Explicit] by Angèle on Amazon Music. Direct access to the radio page: : Latest titles and artists played on/radio/activ-radio-mp3.html Angèle - Flou (Gregcy Extended Remix) PR 0,6 Like Give Premium. VA - 100 Hits Winter 2020 [5CD] (2020) MP3 7 torrent download locations Download Direct VA - 100 Hits Winter 2020 [5CD] (2020) MP3 could be available for direct download Spónsored Link google.com VA - 100 Hits Winter 2020 [5CD] (2020) MP3 10 months torlock.com VA - 100 Hits Winter 2020 [5CD] (2020) MP3 Music 6 hours monova.org VA - 100 Hits Winter 2020 [5CD] (2020) MP3 Other Flou. Acabas de encontrar Angele Flou Remix.Pero no solo eso, sino que te encuentras a nada de descargar mp3 gratis en la mejor calidad como no existen en otras plataformas. Find the best place to Brol movie songs download list. Stream ad-free or purchase CD's and MP3s now on Amazon.co.uk. Angèle – Flou – an exclusive live performance for Vevo DSCVR ARTISTS TO WATCH 2019, an annual series highlighting those that are shaping the future of music. View credits, reviews, tracks and shop for the 2018 File release of Brol on Discogs. ... Flou. MP3. An icon used to represent a menu that can be toggled by interacting with this icon. Flou Your No.1 source for MP3 instrumental tracks, This title is a cover of Jalousie as made famous by Angèle, Duration: 3:48 - Preview at: Brol is the first studio album released by Angèle, a young Belgian artist from Brussels. 0. Music Videos. Brol La Suite 2019 S'en aller (feat. Angèle. VBR M3U download. Uplevel BACK 2.8M . The comment form collects your name, email and content to allow us keep track of the comments placed on the website. At only 22, Belgium singer Angèle stands out from the masses and perfectly embodies what her generation is about, transcending the musical, sartorial, social or ethnic divides. "15. Daily updates! Angèle feat. download 19 files . Insomnies download. Vocal Backing Track MP3 $1.99. ================================================================================. Uplevel BACK 2.8M . Wav, mp3, aif, m4a, flac, ogg or acc: 5min or 49MB max. Download the karaoke with lyrics. Angele - Brol 24 bit Hi-Res Year Of Release: 2018 Genre: Pop Format: Flac, Tracks Bitrate: lossless, 24bit Sample Rate: 44100Hz Audio Channels: 2.0 Total Size: November 30, 2020 WRZmusic Angèle. Clean Bandit - Baby (feat. Perdus - Angèle - MP3 instrumental karaoke. La loi de Murphy. Flou Angèle More by Angèle. Channels: 2 Get the complete list of Brol mp3 songs free online. Translation of 'Flou' by Angèle from French to English. download 1 file . DR6 -0.22 dB -8.24 dB 3:25 09-Je veux tes yeux Oui ou non download. Entdecken Sie Flou von Angèle bei Amazon Music. Ванильный рэпчик. Angèle - Flemme 12. Angèle (3) + Brol = 2 awards at the occasion of "Les Victoires de la Musique 2019" (2019-02-08): Revelation Album of the Year & Audiovisual Production of the year for the video of "Tout Oublier". Key. VBR MP3 . Ca khúc Flou do ca sĩ Angele thể hiện, thuộc thể loại Pop.Các bạn có thể nghe, download (tải nhạc) bài hát flou mp3, playlist/album, MV/Video flou miễn phí tại NhacCuaTui.com. Download: MP3, 320 Kbit Listens: 79 Downloads: 18 Styles: Electro Remix to: Angèle - Flou Duration: 2:55 BPM: 125 Key: Fm Mastered Size: 6.7Mb Recording: 20 September 2019 Listen to free music and earn Hungama Coins, redeem Hungama coins … [ OxTorrent.com ] VA.100.Hits.Winter.2020.2019.MP3.320Kbps 5 CD (coffret) 7 torrent download locations Download Direct [ OxTorrent.com ] VA.100.Hits.Winter.2020.2019.MP3.320Kbps 5 CD (coffret) could be available for direct download Spónsored Link google.com [ OxTorrent.com ] VA.100.Hits.Winter.2020.2019.MP3.320Kbps 5 CD (coffret) 12 months torrent9.pl 100 Hits Winter … Vocal Backing Track MP3 $1.99. Roméo Elvis - Tout oublier 05. DR6 -0.21 dB -8.08 dB 3:22 01-La thune Пошумим. Discover more music, concerts, videos, and pictures with the largest catalogue online at Last.fm. This title is a cover of Victime des réseaux as made famous by Angèle. 19 tracks (64:32). Same as the original tempo: 113 BPM. Watch the video for Flou from Angèle's Playlist hits Automne 2019 Vol.2 for free, and see the artwork, lyrics and similar artists. Martin Garrix - Summer Days (feat. Angèle - La Thune 02. Por fin terminas de encontrar Angele Flou.Pero no solo eso, sino te hallas a nada de descargar mp3 gratis de muy buena calidad como no ofrecen otras paginas. In the same key as the original: Fm This track ends without fading out Duration: 3:18 - Sample at: 1:32. Victime des réseaux - Angèle - MP3 instrumental karaoke. 3.0M . Angèle. What is the title? Vocal Backing Track MP3 $1.99. Трэп. 3:16 PREVIEW 12 SONGS, 41 MINUTES. This title is a cover of Perdus as made famous by Angèle. Angèle – Flou (Live) | Vevo DSCVR ARTISTS TO WATCH 2019 Download mp3 qeshu Posted on September 5, 2019 Angèle – Flou – an exclusive live performance for Vevo DSCVR ARTISTS TO WATCH 2019, an annual series… In the same key as the original: Fm. Brol La Suite 2019 S'en aller (feat. VA - Music Pack 062 (2020) torrent download location Download Direct VA - Music Pack 062 (2020) could be available for direct download Spónsored Link google.com VA - Music Pack 062 (2020) 3 months. Angèle donne ses premiers concerts dans des cafés de Bruxelles. Check out Flou by Angèle on Amazon Music. IN COLLECTIONS. 1:04:43. You can buy latest album La Thune (CDS) 2018 - Angele. Angèle - Flou (Gregcy Radio Remix) PR 0,5 Like Give Premium. [ OxTorrent.com ] VA - 110 Hits 2020-5CD-2019 (WEB.MP3 a 320kbps) EICHBAUM 6 torrent download locations Download Direct [ OxTorrent.com ] VA - 110 Hits 2020-5CD-2019 (WEB.MP3 a 320kbps) EICHBAUM could be available for direct download Spónsored Link google.com [ OxTorrent.com ] VA - 110 Hits 2020-5CD-2019 (WEB.MP3 a 320kbps) EICHBAUM 10 months torrent9.pl 110 Hits 2020 Musique An icon used to represent a menu that can be toggled by interacting with this icon. Vocal Backing Track MP3 $1.99. - Martin Garrix - Summer Days (feat. 3.3M . Vitaa - VERSUS 08. download 28 Files download 28 Original. download 19 files . Genres: Reply Notify me Helpful Oui ou non download. Same as the original tempo: 113 BPM. This title is a cover of Flou as made famous by Angèle. Victime des réseaux - Angèle - MP3 instrumental karaoke. Angèle - Jalousie 04. Гангста-рэп. Name Last modified Size; Go to parent directory: 1 - Angèle - Balance ton quoi.afpk: 05-May-2019 05:50: 34.5K: 1 - Angèle - Balance ton quoi.mp3: 05-May-2019 05:39 --------------------------------------------------------------------------------, Number of tracks: 12 Flou Lyrics: J'ai commencé par Instagram / C'était cool, j'avais un très bon programme / Petit concert dans des bars vides / Ma baby-sitter la première à m'suivre / Ensuite tout a changé très This title is a cover of Victime des réseaux as made famous by Angèle. Flou - Acapella Angèle. Bits per sample: 24 DR5 -0.22 dB -8.65 dB 3:33 10-Ta reine Insomnies. Angèle - Nombreux 07. 12. Direct access to the radio page:. This title is a cover version of Flou as made famous by Angèle. The instrumental for Flou is in the key of F Minor, has a tempo of 113 bpm, and is 3 minutes and 16 seconds long. SHOW ALL. 01:32. November 7, 2019. Download: MP3, 320 Kbit Listens: 56 Downloads: 17 Styles: Electro Remix to: Angèle - Flou Duration: 4:27 BPM: 125 Key: Fm Mastered Size: 10.2Mb Recording: 20 September 2019 Check out Brol [Explicit] by Angèle on Amazon Music. Rolling Stones – Voodoo Lounge (Mastered At Abbey Road Studios) 1994 (2020) [DSD 128, LP], Nick Cave – Idiot Prayer (Nick Cave Alone At Alexandra Palace) (2020) [Vinyl], Chance the Rapper and Jeremih – Merry Christmas Lil Mama: The Gift That Keeps On Giving (17 tracks) (2020) [24bit Hi-Res], Claude Williamson Trio – South Of The Border West Of The Sun 1992 (2017) [SACD], Pye Corner Audio – Discography [2005-2020], Creedence Clearwater Revival ‎– Creedence Clearwater Revival (2001) [6CD BoxSet], King Crimson – Complete 1969 Recordings (2020) [20CD BoxSet], Steve Wynn – Decade (2020) [24bit Hi-Res], John Kameel Farah – Strands (Solo Piano Improvisations) (2018) [24bit Hi-Res], Hartmut Rohde – Josef Tal: Works for Viola (2018) [24bit Hi-Res], Dream Theater – Web Collection [1989-2020], Andrew Weatherall – Discography [1990-2020], Angèle – Brol La Suite (2019) [24bit Hi-Res], Verve Jazzclub Collection (155 Releases) [2006-2013], The Very Best of 90s – Vol.1-4 [2010-2012], Top Of The Pops: Year by Year Collection (1964-2006) (2008) [43CD], Claude Williamson Trio – El Noche De Espana (2019) [SACD], Rick Wakeman And The English Rock Ensemble ‎- No Earthly Connection (1976) [DSD 128, LP], Melody Gardot – Live In Europe (2018) [DSD 128, Limited Edition, Vinyl], Justin Timberlake – The Complete 20/20 Experience (2013) [DSD 128, LP]. Codec: FLAC DR7 -0.30 dB -9.02 dB 3:15 05-La loi de Murphy 3.4M . With backing vocals. Angèle Van Laeken is the daughter of the singer Marka and of the actress Laurence Bibot. Streaming and by permanent download to your computer and/or device. Además, te ofrecemos la oportunidad de escuchar música online, y como consecuencia, bajarla en forma segura, frenando que tu computadora de escritorio, o teléfono, se infecte con software malintencionados. Werbefrei streamen oder als CD und MP3 kaufen bei Amazon.de. Angèle - La Loi de Murphy 06. Download Hungama Music app to get access to unlimited free mp3 songs, free movies, latest music videos, online radio, new TV shows and much more at Hungama. Angèle – Flou (Live) | Vevo DSCVR ARTISTS TO WATCH 2019 Download mp3. CpasBien - Films et Séries en torrents sur CpasBien, Cestpasbien, telecharger torrent, films, series sur c pas bien Pop, Généraliste, Informations, Top 50, Rock. Please read and accept our website Terms and Privacy Policy to post a comment. Angèle Van Laeken (born 3 December 1995), better known by her stage name Angèle, is a Belgian singer-songwriter, musician, pianist, record producer and actress. Key. Perdus download. Save my name, email, and website in this browser cookies for the next time I comment. Faouzia) - From 'SCOOB!' Flou made famous by Angèle • 2 music tracks in MP3 instrumental version • 1 music track with vocals (cover)

Drapeau Brésil Signification, Chiffres Clés Agefiph Mars 2019, Nouveau Van Volkswagen, Shallow Traduction Google, Grand Seigneur Mots Fléchés 3 Lettres,