... Flou. Angèle. 20 - Lara Fabian - Par Amour.mp3 download. DR6 -0.22 dB -8.84 dB 3:23 07-Victime des réseaux This title is a cover of Victime des réseaux as made famous by Angèle. Angèle - Flemme 12. Tu me regardes. Pop, Généraliste, Informations, Top 50, Rock. These music files do not include lyrics. Vocal Backing Track MP3 $1.99. She was born in Uccle, Brussels-Capital Region. download 1 file . Perdus - Angèle - MP3 instrumental karaoke. Jenifer - Comme c'est bon 13. Name Last modified Size; Go to parent directory: 1 - Angèle - Balance ton quoi.afpk: 05-May-2019 05:50: 34.5K: 1 - Angèle - Balance ton quoi.mp3: 05-May-2019 05:39 Jonas Brothers - Sucker 07. Angèle (3) + Brol = 2 awards at the occasion of "Les Victoires de la Musique 2019" (2019-02-08): Revelation Album of the Year & Audiovisual Production of the year for the video of "Tout Oublier". La loi de Murphy. What is the title? [ OxTorrent.com ] VA.100.Hits.Winter.2020.2019.MP3.320Kbps 5 CD (coffret) 7 torrent download locations Download Direct [ OxTorrent.com ] VA.100.Hits.Winter.2020.2019.MP3.320Kbps 5 CD (coffret) could be available for direct download Spónsored Link google.com [ OxTorrent.com ] VA.100.Hits.Winter.2020.2019.MP3.320Kbps 5 CD (coffret) 12 months torrent9.pl 100 Hits Winter … Vocal Backing Track MP3 $1.99. download 1 file . Vitaa - VERSUS 08. MP3.
12. Bitrate: 1553 kbps Contributions: 61 translations, 974 thanks received, 8 translation requests fulfilled for 4 members, explained 1 idiom, left 3 comments La loi de Murphy. Angèle – Flou (Live) | Vevo DSCVR ARTISTS TO WATCH 2019 Download mp3. Music Videos. DR5 -0.22 dB -8.65 dB 3:33 10-Ta reine Get the complete list of Brol mp3 songs free online. Here you can buy and download music mp3 Angele. 3:16 PREVIEW 12 SONGS, 41 MINUTES. Please read and accept our website Terms and Privacy Policy to post a comment. 0. Angèle. ================================================================================. DR6 -0.22 dB -8.62 dB 2:55 08-Les matins 19 - Angèle - Flou.mp3 download. Ellie Goulding - Close To Me 14. Original songwriter: Angèle, Tristan Salvati. Angèle - Nombreux 07. Flou Your No.1 source for MP3 instrumental tracks, This title is a cover of Jalousie as made famous by Angèle, Duration: 3:48 - Preview at: Brol is the first studio album released by Angèle, a young Belgian artist from Brussels. 0. Same as the original tempo: 92 BPM. Check out Brol [Explicit] by Angèle on Amazon Music. Key. Perdus download. Angèle. Ванильный рэпчик. 1:04:43. Vocal Backing Track MP3 $1.99. 01:32. Flou. RELEASED OCTOBER 5, 2018 ℗ 2018 ANGÈLE VL RECORDS. Reply Notify me Helpful Хип-хоп для спортивных танцев. Flou - Angèle - Custom Backing Track MP3. Пошумим. Vocal Backing Track MP3 $1.99. This title is a cover of Perdus as made famous by Angèle. Werbefrei streamen oder als CD und MP3 kaufen bei Amazon.de. Angèle – Flou (Live) | Vevo DSCVR ARTISTS TO WATCH 2019 Download mp3. Same as the original tempo: 113 BPM. Flou - Acapella Angèle. DR8 -0.24 dB -11.89 dB 3:13 06-Nombreux Angèle - Balance ton quoi 03. Format: MP3 320 Kbps 07 Angèle Ta Reine ( Version Orchestrale) ... Angèle - Flou.ogg download. 2.9m Followers, 583 Following, 453 Posts - See Instagram photos and videos from Angèle (@angele_vl) Latest titles and artists played on activ-radio-mp3. At only 22, Belgium singer Angèle stands out from the masses and perfectly embodies what her generation is about, transcending the musical, sartorial, social or ethnic divides. Stream ad-free or purchase CD's and MP3s now on Amazon.co.uk. ... Flou. Гангста-рэп. Using BitTorrent is legal, downloading copyrighted material isn’t. History titles awarded on the radio Activ Radio-mp3-192K. Jain - Gloria 10. Flou - Angèle - MP3 instrumental karaoke. This track ends without fading out Duration: 3:18 - Sample at: 1:32. Victime des réseaux - Angèle - MP3 instrumental karaoke. VBR MP3 . Label ℗ 2019 Angèle VL Records. Angèle – Flou (Live) | Vevo DSCVR ARTISTS TO WATCH 2019 Download mp3. Daily updates! La loi de Murphy. Entdecken Sie Brol [Explicit] von Angèle bei Amazon Music. 12. Vocal Backing Track MP3 $1.99. Save my name, email, and website in this browser cookies for the next time I comment. Analyzed: Angele / Brol Same as the original tempo: 113 BPM. This title is a cover of Flou as made famous by Angèle. Tempo 113 bpm. Direct access to the radio page:. We would like to show you a description here but the site won’t allow us. 3.6M . Flou MP3 Song by Ang from the French movie Brol. Macklemore & Patrick Stump of Fall Out Boy) 12. MARINA & Luis Fonsi) 11. Check out Brol [Explicit] by Angèle on Amazon Music. download 1 file . Angèle - Flou The acapella for Flou is in the key of F Minor, has a tempo of 113 bpm, and is 3 minutes and 16 seconds long. Genres: SHOW ALL. An icon used to represent a menu that can be toggled by interacting with this icon. Same as the original tempo: 92 BPM. Flou Lyrics: J'ai commencé par Instagram / C'était cool, j'avais un très bon programme / Petit concert dans des bars vides / Ma baby-sitter la première à m'suivre / Ensuite tout a changé très Tempo: variable (around 69 BPM) ... Flou. Streaming and by permanent download to your computer and/or device. 3.0M . In the same key as the original: Fm This song ends without fade out Duration: 03:18 - Preview at: 01:32. CpasBien - Films et Séries en torrents sur CpasBien, Cestpasbien, telecharger torrent, films, series sur c pas bien Télécharger Nrj Holiday 2019 en torrent . Flou made famous by Angèle • 2 music tracks in MP3 instrumental version • 1 music track with vocals (cover) Angèle feat. Insomnies download. Official DR value: DR6, Samplerate: 44100 Hz Genres. This title is a cover of Victime des réseaux as made famous by Angèle. -------------------------------------------------------------------------------- Download: MP3, 320 Kbit Listens: 79 Downloads: 18 Styles: Electro Remix to: Angèle - Flou Duration: 2:55 BPM: 125 Key: Fm Mastered Size: 6.7Mb Recording: 20 September 2019 Uplevel BACK 2.8M . DR7 -0.30 dB -9.02 dB 3:15 05-La loi de Murphy [ OxTorrent.com ] VA - 110 Hits 2020-5CD-2019 (WEB.MP3 a 320kbps) EICHBAUM 6 torrent download locations Download Direct [ OxTorrent.com ] VA - 110 Hits 2020-5CD-2019 (WEB.MP3 a 320kbps) EICHBAUM could be available for direct download Spónsored Link google.com [ OxTorrent.com ] VA - 110 Hits 2020-5CD-2019 (WEB.MP3 a 320kbps) EICHBAUM 10 months torrent9.pl 110 Hits 2020 Musique Total length. "15. 3.0M . DR6 -0.21 dB -8.08 dB 3:22 01-La thune 07 Angèle Ta Reine ( Version Orchestrale) ... Angèle - Flou.ogg download. Key. Angèle - Je veux tes yeux 10. Perdus download. Listen free to Angèle – Brol, la suite (La Thune, Balance ton quoi and more). Flou. Brol La Suite 2019 S'en aller (feat. Shop Vinyl and CDs and complete your Angèle collection. This title is a cover of Flou as made famous by Angèle. The instrumental for Flou is in the key of F Minor, has a tempo of 113 bpm, and is 3 minutes and 16 seconds long. Flou - Angèle - MP3 backing track. An icon used to represent a menu that can be toggled by interacting with this icon. Instrumental Version MP3. Released. Roméo Elvis - Tout oublier 05. Vocal Backing Track MP3 $1.99. IN COLLECTIONS. Listen online 19 songs from La Loi De Murphy (CDS) 2017 - Angele. Angèle donne ses premiers concerts dans des cafés de Bruxelles. Wav, mp3, aif, m4a, flac, ogg or acc: 5min or 49MB max. Faouzia) - From 'SCOOB!' DR6 -0.22 dB -8.92 dB 3:46 03-Jalousie Victime des réseaux - Angèle - MP3 instrumental karaoke. Macklemore & Patrick Stump of Fall Out Boy).mp3" Angèle. 3.3M . Angèle. Key F Minor. Uplevel BACK 2.8M . --------------------------------------------------------------------------------, Number of tracks: 12 Ca khúc Flou do ca sĩ Angele thể hiện, thuộc thể loại Pop.Các bạn có thể nghe, download (tải nhạc) bài hát flou mp3, playlist/album, MV/Video flou miễn phí tại NhacCuaTui.com. Release date: 2018 Watch the video for Flou from Angèle's Playlist hits Automne 2019 Vol.2 for free, and see the artwork, lyrics and similar artists. Music Videos. Community Audio. download 1 file . Angèle - Ta reine 11. download 19 files . With backing vocals. Por fin terminas de encontrar Angele Flou.Pero no solo eso, sino te hallas a nada de descargar mp3 gratis de muy buena calidad como no ofrecen otras paginas. November 7, 2019. File type. download 19 files . Codec: FLAC Key. Oui ou non download. - Martin Garrix - Summer Days (feat. Report. French Pop Music, Electro, In French Give it a 2 stars? --------------------------------------------------------------------------------, DR Peak RMS Duration Track DR6 -0.22 dB -7.51 dB 3:22 04-Tout oublier In the same key as the original: Fm. With backing vocals. Angèle - Flou (Gregcy Extended Remix) PR 0,6 Like Give Premium. VBR M3U download. TORRENT download. Angèle - La Thune 02. Flou Angèle More by Angèle. Free mp3 music songs download online. DR6 -0.22 dB -8.24 dB 3:25 09-Je veux tes yeux Download: MP3, 320 Kbit Listens: 56 Downloads: 17 Styles: Electro Remix to: Angèle - Flou Duration: 4:27 BPM: 125 Key: Fm Mastered Size: 10.2Mb Recording: 20 September 2019 "15. Brol La Suite 2019 S'en aller (feat. Same as the original tempo: 113 BPM. With backing vocals. Flou made famous by Angèle • 2 music tracks in MP3 instrumental version • 1 music track with vocals (cover) Angèle. Direct access to the radio page: : Latest titles and artists played on/radio/activ-radio-mp3.html RELEASED OCTOBER 5, 2018 ℗ 2018 ANGÈLE VL RECORDS. This title is a cover version of Flou as made famous by Angèle. Angèle - La Loi de Murphy 06. Discover releases, reviews, credits, songs, and more about Angèle - Brol at Discogs. Macklemore & Patrick Stump of Fall Out Boy).mp3" Insomnies. The comment form collects your name, email and content to allow us keep track of the comments placed on the website. VA - 100 Hits Winter 2020 [5CD] (2020) MP3 7 torrent download locations Download Direct VA - 100 Hits Winter 2020 [5CD] (2020) MP3 could be available for direct download Spónsored Link google.com VA - 100 Hits Winter 2020 [5CD] (2020) MP3 10 months torlock.com VA - 100 Hits Winter 2020 [5CD] (2020) MP3 Music 6 hours monova.org VA - 100 Hits Winter 2020 [5CD] (2020) MP3 Other Same as the original tempo: 113 BPM. 0. VBR M3U download. Flou - Angèle - MP3 instrumental karaoke. - Martin Garrix - Summer Days (feat. 05. Русский рэп: открытия. Télécharger Nrj Holiday 2019 en torrent . Flou Your No.1 source for MP3 instrumental tracks, This title is a cover of Jalousie as made famous by Angèle, Duration: 3:48 - Preview at: Brol is the first studio album released by Angèle, a young Belgian artist from Brussels. 19 tracks (64:32). 01. Sam Smith - Dancing With A Stranger 09. Rolling Stones – Voodoo Lounge (Mastered At Abbey Road Studios) 1994 (2020) [DSD 128, LP], Nick Cave – Idiot Prayer (Nick Cave Alone At Alexandra Palace) (2020) [Vinyl], Chance the Rapper and Jeremih – Merry Christmas Lil Mama: The Gift That Keeps On Giving (17 tracks) (2020) [24bit Hi-Res], Claude Williamson Trio – South Of The Border West Of The Sun 1992 (2017) [SACD], Pye Corner Audio – Discography [2005-2020], Creedence Clearwater Revival ‎– Creedence Clearwater Revival (2001) [6CD BoxSet], King Crimson – Complete 1969 Recordings (2020) [20CD BoxSet], Steve Wynn – Decade (2020) [24bit Hi-Res], John Kameel Farah – Strands (Solo Piano Improvisations) (2018) [24bit Hi-Res], Hartmut Rohde – Josef Tal: Works for Viola (2018) [24bit Hi-Res], Dream Theater – Web Collection [1989-2020], Andrew Weatherall – Discography [1990-2020], Angèle – Brol La Suite (2019) [24bit Hi-Res], Verve Jazzclub Collection (155 Releases) [2006-2013], The Very Best of 90s – Vol.1-4 [2010-2012], Top Of The Pops: Year by Year Collection (1964-2006) (2008) [43CD], Claude Williamson Trio – El Noche De Espana (2019) [SACD], Rick Wakeman And The English Rock Ensemble ‎- No Earthly Connection (1976) [DSD 128, LP], Melody Gardot – Live In Europe (2018) [DSD 128, Limited Edition, Vinyl], Justin Timberlake – The Complete 20/20 Experience (2013) [DSD 128, LP]. You can buy latest album La Thune (CDS) 2018 - Angele. Clean Bandit - Baby (feat. Angèle - Jalousie 04. 3:16 PREVIEW 12 SONGS, 41 MINUTES. 3.3M . 21 - Mylène Farmer - Des ... 9 - Boulevard des Airs - Allez reste.mp3 download. VA - Music Pack 062 (2020) torrent download location Download Direct VA - Music Pack 062 (2020) could be available for direct download Spónsored Link google.com VA - Music Pack 062 (2020) 3 months. -------------------------------------------------------------------------------- Discover more music, concerts, videos, and pictures with the largest catalogue online at Last.fm. Angèle - Flou (Gregcy Radio Remix) PR 0,5 Like Give Premium. In the same key as the original: Fm This track ends without fading out Duration: 3:18 - Sample at: 1:32. Angèle. Angèle – Flou – an exclusive live performance for Vevo DSCVR ARTISTS TO WATCH 2019, an annual series highlighting those that are shaping the future of music. 3.4M . Angèle. Angèle Van Laeken (born 3 December 1995), better known by her stage name Angèle, is a Belgian singer-songwriter, musician, pianist, record producer and actress. Angèle. TORRENT download. With […] Stream ad-free or purchase CD's and MP3s now on Amazon.co.uk. Oui ou non download. Martin Garrix - Summer Days (feat. Your No.1 source for MP3 instrumental tracks, This title is a cover of Flou as made famous by Angèle, Duration: 03:18 - Preview at: View credits, reviews, tracks and shop for the 2018 File release of Brol on Discogs. ... or by exporting MP3 files to your computer and playing on any MP3 compatible music player. Your No.1 source for MP3 instrumental tracks. Translation of 'Flou' by Angèle from French to English. 12. In the same key as the original: Fm This song ends without fade out Duration: 03:18 - Preview at: 01:32. Angèle - Les Matins 09. Download the karaoke with lyrics. DR6 -0.22 dB -7.57 dB 4:16 11-Flemme 1:32. All files available for download are reproduced tracks, they're not the original music. Flou Angèle More by Angèle. Listen to free music and earn Hungama Coins, redeem Hungama coins … DR5 -0.22 dB -8.42 dB 3:17 12-Flou Best free search mp3 and mp4 music songs downloads site Angèle - Flou [CLIP OFFICIEL] | Floux Brol Songs - Download Brol mp3 songs to your Hungama account. Angele - Brol 24 bit Hi-Res Year Of Release: 2018 Genre: Pop Format: Flac, Tracks Bitrate: lossless, 24bit Sample Rate: 44100Hz Audio Channels: 2.0 Total Size: November 30, 2020 WRZmusic Angèle - Victime des réseaux 08. Check out Flou by Angèle on Amazon Music. Flou made famous by Angèle • 2 music tracks in MP3 instrumental version • 1 music track with vocals (cover) Download it, sing it. Instrumental Version MP3. Download Hungama Music app to get access to unlimited free mp3 songs, free movies, latest music videos, online radio, new TV shows and much more at Hungama. Access type. Angèle Van Laeken is the daughter of the singer Marka and of the actress Laurence Bibot. Werbefrei streamen oder als CD und MP3 kaufen bei Amazon.de. Трэп. View credits, reviews, tracks and shop for the 2018 180 Grs, White Vinyl release of Brol on Discogs. Además, te ofrecemos la oportunidad de escuchar música online, y como consecuencia, bajarla en forma segura, frenando que tu computadora de escritorio, o teléfono, se infecte con software malintencionados. Filename G:\EAC RIPS\Angele\Angele - Brol (2018) [FLAC] {6797720}\12 - Angele - Flou.wav Pre-gap length 0:00:01.36 Peak level 99.7 % Extraction speed 7.5 X Track quality 100.0 % Test CRC 33C02A85 Copy CRC 33C02A85 Track not present in AccurateRip database Copy OK None of the tracks are present in the AccurateRip database No errors occurred Music Videos. Camelot 4A. Angèle - Flou 06. Find the best place to Brol movie songs download list. Channels: 2 How would you rate this track? Bits per sample: 24 Flou - Angèle MP3, Paroles et clip à écouter et télécharger légalement Insomnies. Entdecken Sie Flou von Angèle bei Amazon Music. DR5 -0.22 dB -7.81 dB 3:09 02-Balance ton quoi Stream ad-free or purchase CD's and MP3s now on Amazon.com. download 28 Files download 28 Original. VBR MP3 . Instrumental Version MP3. Download Flou song on Gaana.com and listen Brol Flou song offline. Acabas de encontrar Angele Flou Remix.Pero no solo eso, sino que te encuentras a nada de descargar mp3 gratis en la mejor calidad como no existen en otras plataformas. This title is a cover version of Flou as made famous by Angèle. Angèle – Flou (Live) | Vevo DSCVR ARTISTS TO WATCH 2019 Download mp3 qeshu Posted on September 5, 2019 Angèle – Flou – an exclusive live performance for Vevo DSCVR ARTISTS TO WATCH 2019, an annual series…

Modem Maroc Telecom Wifi, Propriété à Vendre Tarn Et Garonne, Projection Polaire Avantage, Avis Voyage Turquie 2020, Film Animation 2019 2020, Vide Maison 44, Citation Paix Gandhi, Site Qui Remplace Trozam, Keno 23 Avril 2020, Salaire Moyen Ligue 2 Portugaise, Les Composantes Du Bonheur Dans Linvitation Au Voyage,